Информация о звуковых дорожках

Предложения и пожелания по поводу новых функций в Movienizer.
ValR
Extra
Posts: 35
Joined: Thu Feb 03, 2011 3:34 pm

Re: Информация о звуковых дорожках

Post by ValR » Thu Oct 13, 2011 6:17 am

TerribleFloater wrote: В идеале, кстати, комбинировать из трёх таблиц: язык, ТТХ, допинформация. Тогда таблицы станут намного короче. Ну, а для субтитров точно хватит двух таблиц: язык и допинформация.
+1
С уважением, ValR.

User avatar
maniac
Developer
Posts: 4401
Joined: Wed Jan 23, 2008 11:06 am
Location: La Prairie, Canada
Contact:

Re: Информация о звуковых дорожках

Post by maniac » Thu Oct 13, 2011 6:42 am

TerribleFloater wrote:Есть. Так же, как сейчас список ролей в фильме -- окно одно, а таблиц две. В идеале, кстати, комбинировать из трёх таблиц: язык, ТТХ, допинформация. Тогда таблицы станут намного короче. Ну, а для субтитров точно хватит двух таблиц: язык и допинформация.
Давайте на примере "Russian AC3 2 ch 128 kbps - Живов" разберем что куда писать.
Не обещаю, что такую разбивку сделаем (не хочется внутренности сильно менять), но вдруг получится.
1 столбик: Russian
2 столблик: AC3 2 ch 128 kbps
3 столбик: Живов

Правильно?
ImageImage

TerribleFloater
Superstar
Posts: 1925
Joined: Thu Feb 28, 2008 4:20 pm

Re: Информация о звуковых дорожках

Post by TerribleFloater » Thu Oct 13, 2011 1:45 pm

Абсолютно!
Первый столбик, таким образом, совпадает с "нынешними" субтитрами :-)
Второй -- чистые ТТХ, которых не очень-то и много. Даже единицы измерения писать не обязательно.
Третий -- на откуп пользователю: хочет -- заполняет, хочет -- не заполняет.
Выводить в страницу фильма и отчёты можно и через пробел, и через запятую, точку с запятой -- как покажется максимально удобным разработчикам и/или пользователям.
Главное, чтобы в случае более чем одной дорожек с одинаковыми языком и ТТХ записывались бы все.
1. Russian AC3 2 ch 128
2. Russian AC3 2 ch 128
А пользователь, если захочет, сам отметит в первой Живова, во второй -- Гаврилова.
Хочу: чёрные списки, пол людей, пользовательские поля изданий.
Кинопоиск: Image ПлюсКинопоиск: Image

User avatar
maniac
Developer
Posts: 4401
Joined: Wed Jan 23, 2008 11:06 am
Location: La Prairie, Canada
Contact:

Re: Информация о звуковых дорожках

Post by maniac » Thu Oct 13, 2011 2:00 pm

TerribleFloater wrote:Главное, чтобы в случае более чем одной дорожек с одинаковыми языком и ТТХ записывались бы все.
1. Russian AC3 2 ch 128
2. Russian AC3 2 ch 128
А пользователь, если захочет, сам отметит в первой Живова, во второй -- Гаврилова.
Боюсь, что если Живов не определится, то только одна строка сохранится :(
Если же есть комменты к дорожкам, то сохранится и Живов, и Гаврилов. Попробуем сделать. Если не получится, то сделаем сохранение просто "Russian AC3 2 ch 128 kbps - Живов".
ImageImage

TerribleFloater
Superstar
Posts: 1925
Joined: Thu Feb 28, 2008 4:20 pm

Re: Информация о звуковых дорожках

Post by TerribleFloater » Thu Oct 13, 2011 3:14 pm

Так откуда же будет Живов в файле или на диске? Разве что создатель занесёт, что происходит с файлами-то не всегда, а с дисками просто никогда.
Вот медиаинфа из реального файла:
Полное имя : E:\Ubrat_periskop_NEW_by_Alex_Shiva[torrents.ru].avi
Формат : AVI
Формат/Информация : Audio Video Interleave
Профиль формата : OpenDML
Настройки формата : rec
Размер файла : 1,45 Гбайт
Продолжительность : 1 ч. 32 м.
Общий поток : 2233 Кбит/сек
Программа кодирования : AVI-Mux GUI 1.17.8, Aug 30 2008 12:36:58

Видео
Идентификатор : 0
Формат : MPEG-4 Visual
Профиль формата : Advanced Simple@L5
Параметр BVOP формата : 3
Параметр QPel формата : Да
Параметр GMC формата : 3 точки перехода
Параметр матрицы формата : Default (H.263)
Режим смешивания : Сжатый битовый поток
Идентификатор кодека : XVID
Идентификатор кодека/Подсказка : XviD
Продолжительность : 1 ч. 32 м.
Битрейт : 1066 Кбит/сек
Ширина : 720 пикс.
Высота : 392 пикс.
Соотношение сторон : 16:9
Частота кадров : 23,976 кадр/сек
Цветовое пространство : YUV
Подвыборка цветности : 4:2:0
Битовая глубина : 8 бит
Тип развёртки : Прогрессивная
Метод сжатия : С потерями
Бит/(Пиксели*Кадры) : 0.157
Размер потока : 707 Мбайт (48%)
Библиотека кодирования : XviD 1.2.0.dev47 (UTC 2006-11-01)

Аудио #1
Идентификатор : 1
Формат : AC-3
Формат/Информация : Audio Coding 3
Расширение режима : CM (complete main)
Идентификатор кодека : 2000
Продолжительность : 1 ч. 32 м.
Вид битрейта : Постоянный
Битрейт : 192 Кбит/сек
Каналы : 6 каналов
Расположение каналов : Front: L C R, Side: L R, LFE
Частота : 48,0 КГц
Битовая глубина : 16 бит
Метод сжатия : С потерями
Размер потока : 127 Мбайт (9%)
Выравнивание : Соединение по промежуткам
Продолжительность промежутка : 64 мс. (1,53 видеокадра)
Время предзагрузки промежутка : 192 ms

Аудио #2
Идентификатор : 2
Формат : AC-3
Формат/Информация : Audio Coding 3
Расширение режима : CM (complete main)
Идентификатор кодека : 2000
Продолжительность : 1 ч. 32 м.
Вид битрейта : Постоянный
Битрейт : 192 Кбит/сек
Каналы : 2 канала
Расположение каналов : Front: L R
Частота : 48,0 КГц
Битовая глубина : 16 бит
Метод сжатия : С потерями
Размер потока : 127 Мбайт (9%)
Выравнивание : Соединение по промежуткам
Продолжительность промежутка : 64 мс. (1,53 видеокадра)
Время предзагрузки промежутка : 192 ms

Аудио #3
Идентификатор : 3
Формат : AC-3
Формат/Информация : Audio Coding 3
Расширение режима : CM (complete main)
Идентификатор кодека : 2000
Продолжительность : 1 ч. 32 м.
Вид битрейта : Постоянный
Битрейт : 192 Кбит/сек
Каналы : 2 канала
Расположение каналов : Front: L R
Частота : 48,0 КГц
Битовая глубина : 16 бит
Метод сжатия : С потерями
Размер потока : 127 Мбайт (9%)
Выравнивание : Соединение по промежуткам
Продолжительность промежутка : 64 мс. (1,53 видеокадра)
Время предзагрузки промежутка : 192 ms

Аудио #4
Идентификатор : 4
Формат : AC-3
Формат/Информация : Audio Coding 3
Расширение режима : CM (complete main)
Идентификатор кодека : 2000
Продолжительность : 1 ч. 32 м.
Вид битрейта : Постоянный
Битрейт : 192 Кбит/сек
Каналы : 2 канала
Расположение каналов : Front: L R
Частота : 48,0 КГц
Битовая глубина : 16 бит
Метод сжатия : С потерями
Размер потока : 127 Мбайт (9%)
Выравнивание : Соединение по промежуткам
Продолжительность промежутка : 64 мс. (1,53 видеокадра)
Время предзагрузки промежутка : 192 ms

Аудио #5
Идентификатор : 5
Формат : AC-3
Формат/Информация : Audio Coding 3
Расширение режима : CM (complete main)
Идентификатор кодека : 2000
Продолжительность : 1 ч. 32 м.
Вид битрейта : Постоянный
Битрейт : 192 Кбит/сек
Каналы : 2 канала
Расположение каналов : Front: L R
Частота : 48,0 КГц
Битовая глубина : 16 бит
Метод сжатия : С потерями
Размер потока : 127 Мбайт (9%)
Выравнивание : Соединение по промежуткам
Продолжительность промежутка : 64 мс. (1,53 видеокадра)
Время предзагрузки промежутка : 192 ms

Аудио #6
Идентификатор : 6
Формат : AC-3
Формат/Информация : Audio Coding 3
Расширение режима : CM (complete main)
Идентификатор кодека : 2000
Продолжительность : 1 ч. 32 м.
Вид битрейта : Постоянный
Битрейт : 192 Кбит/сек
Каналы : 6 каналов
Расположение каналов : Front: L C R, Side: L R, LFE
Частота : 48,0 КГц
Битовая глубина : 16 бит
Метод сжатия : С потерями
Размер потока : 127 Мбайт (9%)
Выравнивание : Соединение по промежуткам
Продолжительность промежутка : 64 мс. (1,53 видеокадра)
Время предзагрузки промежутка : 192 ms

Текст
Идентификатор : 7
Размер потока : 117 Кбайт (0%)
Заголовок : Down Periscope_RUS_1996
Шесть звуковых дорожек, все разные, все важные, почти у всех одинаковые ТТХ, что где -- пожалуйте на страницу с раздачей...
А вот диск аналогичный:
http://www.r7.org.ru/forum/index.php?m= ... 906#256906
Хочу: чёрные списки, пол людей, пользовательские поля изданий.
Кинопоиск: Image ПлюсКинопоиск: Image

User avatar
maniac
Developer
Posts: 4401
Joined: Wed Jan 23, 2008 11:06 am
Location: La Prairie, Canada
Contact:

Re: Информация о звуковых дорожках

Post by maniac » Thu Oct 13, 2011 6:28 pm

Кто-то еще смотрит AVI? ;)
В MKV это чаще всего есть:
Image
ImageImage

TerribleFloater
Superstar
Posts: 1925
Joined: Thu Feb 28, 2008 4:20 pm

Re: Информация о звуковых дорожках

Post by TerribleFloater » Fri Oct 14, 2011 3:23 am

maniac wrote:Кто-то еще смотрит AVI? ;)
В MKV это чаще всего есть:
И AVI смотрят, и DVD, и BD... Так что не стоит закладываться на обязательное наличие комментариев (и их правильность, кстати). Я уж не говорю об их одинаковости: Живов, Zhivov, Zhivoff... Всё равно необходимо предусмотреть возможность ручной правки занесённой информации.
Хочу: чёрные списки, пол людей, пользовательские поля изданий.
Кинопоиск: Image ПлюсКинопоиск: Image

User avatar
maniac
Developer
Posts: 4401
Joined: Wed Jan 23, 2008 11:06 am
Location: La Prairie, Canada
Contact:

Re: Информация о звуковых дорожках

Post by maniac » Fri Oct 14, 2011 8:27 am

TerribleFloater wrote:И AVI смотрят, и DVD, и BD... Так что не стоит закладываться на обязательное наличие комментариев (и их правильность, кстати). Я уж не говорю об их одинаковости: Живов, Zhivov, Zhivoff... Всё равно необходимо предусмотреть возможность ручной правки занесённой информации.
Правка, конечно, будет.
ImageImage

User avatar
maniac
Developer
Posts: 4401
Joined: Wed Jan 23, 2008 11:06 am
Location: La Prairie, Canada
Contact:

Re: Информация о звуковых дорожках

Post by maniac » Thu Nov 03, 2011 12:39 pm

Сейчас работаем над этой функцией. После сканирования моей коллекции оказалось, что я неверно представлял что хранится в комментах :(
Вот пример:
Image
Оказывается, там кроме вида озвучки часто еще дублируется кодек, битрейт и т.д. Причем реальный битрейт не совпадает с указанным.
Непонятно как тогда выводить инфо :(
Если в карточке фильма показывать Язык, кодек с битрейтом, комментарий, то может быть так:
Russian, AC3 2ch 320 kbps, AC3 2ch 320kbps (Дубляж,1канал ТВ)

Лучше, наверное, из комментария вырезать информацию о кодеке и битрейте, но это будет не всегда возможно - сильно форматы отличаются :(
ImageImage

TerribleFloater
Superstar
Posts: 1925
Joined: Thu Feb 28, 2008 4:20 pm

Re: Информация о звуковых дорожках

Post by TerribleFloater » Thu Nov 03, 2011 5:58 pm

maniac wrote:Непонятно как тогда выводить инфо :(
Если в карточке фильма показывать Язык, кодек с битрейтом, комментарий, то может быть так:
Russian, AC3 2ch 320 kbps, AC3 2ch 320kbps (Дубляж,1канал ТВ)

Лучше, наверное, из комментария вырезать информацию о кодеке и битрейте, но это будет не всегда возможно - сильно форматы отличаются :(
Ну, второй раз явно лишнее, да? ;)
На мой взгляд, можно поступить так (это ведь про перенос данных речь, да?): перенести как есть, с битрейтами и чем угодно. Пусть будут, условно, такие записи в новом справочнике:
AC3 2ch 256kbps (Дубляж,1канал ТВ)
AC3 2ch 320kbps (Дубляж,1канал ТВ)
Перенеслось, ОК. Теперь меняем эти строки в справочнике на:
Дубляж,1канал ТВ
Дубляж,1канал ТВ ЗАМЕНИТЬ!
И меняем во всех фильмах вторую на первую -- способов куча, от ручками до плагинов :-) А потом вторую удаляем, убедившись, что ссылок на неё не осталось.
Всё это нужно ведь лишь тем, кто этим заморочен. А такой кадр согласится не полчаса работы с любимой базой.
Хочу: чёрные списки, пол людей, пользовательские поля изданий.
Кинопоиск: Image ПлюсКинопоиск: Image

Post Reply